[Other] [ Hành Động | Kinh Điển ] The Godfather Trilogy mHD BluRay DD5.1 x264-EPiK | 3 Phần Phim Bố Già (Ma

Thảo luận trong 'mHD, SD' bắt đầu bởi thien my, 25/5/15.

  1. thien my

    thien my Well-Known Member

    Tham gia ngày:
    7/12/09
    Bài viết:
    7,270
    Đã được cảm ơn:
    7,897
    Điểm thành tích:
    113
    Giới tính:
    Nam
    Nghề nghiệp:
    Ăn Không Ngồi rồi
    Nơi ở:
    Hàng xẻng
    Tiền:
    5,840 CR
    The Godfather Trilogy mHD BluRay DD5.1 x264-EPiK
    3 Phần Phim Bố Già
    (Marlon Brando, Al Pacino, James Caan)





    [​IMG]

    Mã:
    MEDIAINFO
    General
    Complete name                    : The.Godfather.Part.I.1972.mHD.720p.BluRay.AC3.x264-EPiK.mkv
    Format                           : Matroska
    File size                        : 3.60 GiB
    Duration                         : 2h 57mn
    Overall bit rate                 : 2 911 Kbps
    Movie name                       : The Godfather (1972)
    Encoded date                     : UTC 2010-12-12 08:49:54
    Writing application              : mkvmerge v4.4.0 ('Die Wiederkehr') built on Oct 31 2010 21:52:48
    
    
    Writing library                  : libebml v1.0.0 + libmatroska v1.0.0
    Cover                            : Yes / Yes / Yes
    Video
    ID                               : 1
    Format                           : AVC
    Format/Info                      : Advanced Video Codec
    Format profile                   : High@L4.1
    Format settings, CABAC           : Yes
    Format settings, ReFrames        : 7 frames
    Codec ID                         : V_MPEG4/ISO/AVC
    Duration                         : 2h 57mn
    Bit rate                         : 2 133 Kbps
    Width                            : 1 280 pixels
    Height                           : 720 pixels
    Display aspect ratio             : 16:9
    Frame rate                       : 23.976 fps
    Color space                      : YUV
    Chroma subsampling               : 4:2:0
    Bit depth                        : 8 bits
    Scan type                        : Progressive
    Bits/(Pixel*Frame)               : 0.097
    Stream size                      : 2.64 GiB (73%)
    Title                            : EPiK@All.hdvnbits.org
    Writing library                  : x264 core 104 r1703 cd21d05
    Language                         : English
    Audio #1
    ID                               : 2
    Format                           : AC-3
    Format/Info                      : Audio Coding 3
    Mode extension                   : CM (complete main)
    Codec ID                         : A_AC3
    Duration                         : 2h 57mn
    Bit rate mode                    : Constant
    Bit rate                         : 640 Kbps
    Channel(s)                       : 6 channels
    Channel positions                : Front: L C R, Side: L R, LFE
    Sampling rate                    : 48.0 KHz
    Bit depth                        : 16 bits
    Stream size                      : 811 MiB (22%)
    Title                            : EPiK@All.hdvnbits.org
    Language                         : English
    Text #1
    ID                               : 4
    Format                           : ASS
    Language                         : English
    Text #8
    ID                               : 11
    Format                           : UTF-8
    Language                         : Vietnamese

    [​IMG]

    Bố già (tiếng Anh: The Godfather) là một bộ phim hình sự sản xuất năm 1972 dựa theo tiểu thuyết cùng tên của nhà văn Mario Puzo và do Francis Ford Coppola đạo diễn. Bộ phim có dàn diễn viên nổi tiếng gồm Marlon Brando, Al Pacino, Robert Duvall, Diane Keaton và James Caan. Phim xoay quanh diễn biến của gia đình mafia gốc Ý Corleone trong khoảng 10 năm từ 1945 đến 1955.

    Bộ phim được coi là một trong những phim hay nhất của lịch sử điện ảnh, nó luôn xếp ở các vị trí dẫn đầu trong các bảng xếp hạng phim hay uy tín.

    Phim bắt đầu bằng cảnh đám cưới của Connie Corleone, con gái duy nhất của ông trùm Vito Corleone với Carlo Rizzi vào cuối mùa hè năm 1945 ở Long Island, New York. Vì phong tục "không người Sicilia nào được từ chối những đề nghị vào ngày cưới của con gái họ", Vito Corleone, thường được bạn bè và người cộng tác gọi là "Bố già", cùng với người cố vấn Tom Hagen phải ngồi nghe những thỉnh cầu từ bạn bè và đối tác làm ăn. Cùng lúc đó, con trai út của nhà Corleone, Michael, người vừa trở về sau chiến tranh với tư cách một anh hùng, kể cho bạn gái của anh là Kay Adams những giai thoại về cuộc đời tội ác của cha mình và cam đoan với cô rằng anh không giống với gia đình mình.

    Trong số khách mời đám cưới có ca sĩ nổi tiếng Johnny Fontane, con đỡ đầu của Vito Corleone, tới để đề nghị Bố già giúp đỡ anh ta có được vai diễn trong một bộ phim Hollywood của Jack Woltz, người trước đó đã từ chối thẳng thừng Fontane. Don Corleone đã nói với Johnny:

    "Ta sẽ đưa ra một đề nghị mà hắn không thể chối từ - I'm gonna make him an offer he can't refuse".​





    [​IMG] [​IMG] [​IMG] [​IMG] [​IMG] [​IMG] [​IMG] [​IMG] [​IMG] [​IMG] [​IMG] [​IMG]


    [​IMG]


    -

    [​IMG]



    Host Chiase.io
    Download Max Speed Mà Không cần Acc VIP
    Hãy Đăng Ký Ngay 1 Tài Khoản Và Trải Nghiệm Nào
    Nhấn nút Cảm ơn (dưới chân bài) để thấy link!

    Subtitles

     
  2. Mourad

    Mourad New Member

    Tham gia ngày:
    4/10/16
    Bài viết:
    25
    Đã được cảm ơn:
    2
    Điểm thành tích:
    3
    Tiền:
    25 CR
    [QUOTE = "thien my, post: 8179564, member: 55867"] Click the button Thanks (bottom) to see the link!
    goooooooooooooooooooood
     
    #2 +1 CR
    HTMmaimai cảm ơn bài này.

Chia sẻ trang này